  0
SECTION
  2
HEADER
  9
$ACADVER
  1
AC1014
  9
$ACADMAINTVER
 70
     9
  9
$DWGCODEPAGE
  3
ANSI_1252
  9
$INSBASE
 10
0.0
 20
0.0
 30
0.0
  9
$EXTMIN
 10
3.027381859891421
 20
3.784921702117332
 30
0.0
  9
$EXTMAX
 10
9.129370178227929
 20
7.66627061129985
 30
0.0
  9
$LIMMIN
 10
0.0
 20
0.0
  9
$LIMMAX
 10
12.0
 20
9.0
  9
$ORTHOMODE
 70
     0
  9
$REGENMODE
 70
     1
  9
$FILLMODE
 70
     1
  9
$QTEXTMODE
 70
     0
  9
$MIRRTEXT
 70
     1
  9
$DRAGMODE
 70
     2
  9
$LTSCALE
 40
1.0
  9
$OSMODE
 70
     0
  9
$ATTMODE
 70
     1
  9
$TEXTSIZE
 40
0.2
  9
$TRACEWID
 40
0.05
  9
$TEXTSTYLE
  7
STANDARD
  9
$CLAYER
  8
0
  9
$CELTYPE
  6
BYLAYER
  9
$CECOLOR
 62
   256
  9
$CELTSCALE
 40
1.0
  9
$DELOBJ
 70
     1
  9
$DISPSILH
 70
     0
  9
$DIMSCALE
 40
1.0
  9
$DIMASZ
 40
0.18
  9
$DIMEXO
 40
0.0625
  9
$DIMDLI
 40
0.38
  9
$DIMRND
 40
0.0
  9
$DIMDLE
 40
0.0
  9
$DIMEXE
 40
0.18
  9
$DIMTP
 40
0.0
  9
$DIMTM
 40
0.0
  9
$DIMTXT
 40
0.18
  9
$DIMCEN
 40
0.09
  9
$DIMTSZ
 40
0.0
  9
$DIMTOL
 70
     0
  9
$DIMLIM
 70
     0
  9
$DIMTIH
 70
     1
  9
$DIMTOH
 70
     1
  9
$DIMSE1
 70
     0
  9
$DIMSE2
 70
     0
  9
$DIMTAD
 70
     0
  9
$DIMZIN
 70
     0
  9
$DIMBLK
  1

  9
$DIMASO
 70
     1
  9
$DIMSHO
 70
     1
  9
$DIMPOST
  1

  9
$DIMAPOST
  1

  9
$DIMALT
 70
     0
  9
$DIMALTD
 70
     2
  9
$DIMALTF
 40
25.4
  9
$DIMLFAC
 40
1.0
  9
$DIMTOFL
 70
     0
  9
$DIMTVP
 40
0.0
  9
$DIMTIX
 70
     0
  9
$DIMSOXD
 70
     0
  9
$DIMSAH
 70
     0
  9
$DIMBLK1
  1

  9
$DIMBLK2
  1

  9
$DIMSTYLE
  2
STANDARD
  9
$DIMCLRD
 70
     0
  9
$DIMCLRE
 70
     0
  9
$DIMCLRT
 70
     0
  9
$DIMTFAC
 40
1.0
  9
$DIMGAP
 40
0.09
  9
$DIMJUST
 70
     0
  9
$DIMSD1
 70
     0
  9
$DIMSD2
 70
     0
  9
$DIMTOLJ
 70
     1
  9
$DIMTZIN
 70
     0
  9
$DIMALTZ
 70
     0
  9
$DIMALTTZ
 70
     0
  9
$DIMFIT
 70
     3
  9
$DIMUPT
 70
     0
  9
$DIMUNIT
 70
     2
  9
$DIMDEC
 70
     2
  9
$DIMTDEC
 70
     2
  9
$DIMALTU
 70
     2
  9
$DIMALTTD
 70
     2
  9
$DIMTXSTY
  7
STANDARD
  9
$DIMAUNIT
 70
     0
  9
$LUNITS
 70
     2
  9
$LUPREC
 70
     4
  9
$SKETCHINC
 40
0.1
  9
$FILLETRAD
 40
0.5
  9
$AUNITS
 70
     0
  9
$AUPREC
 70
     0
  9
$MENU
  1
.
  9
$ELEVATION
 40
0.0
  9
$PELEVATION
 40
0.0
  9
$THICKNESS
 40
0.0
  9
$LIMCHECK
 70
     0
  9
$BLIPMODE
 70
     0
  9
$CHAMFERA
 40
0.5
  9
$CHAMFERB
 40
0.5
  9
$CHAMFERC
 40
1.0
  9
$CHAMFERD
 40
0.0
  9
$SKPOLY
 70
     0
  9
$TDCREATE
 40
2452178.468813657
  9
$TDUPDATE
 40
2452646.424483102
  9
$TDINDWG
 40
0.0009574074
  9
$TDUSRTIMER
 40
0.0009574074
  9
$USRTIMER
 70
     1
  9
$ANGBASE
 50
0.0
  9
$ANGDIR
 70
     0
  9
$PDMODE
 70
     0
  9
$PDSIZE
 40
0.0
  9
$PLINEWID
 40
0.0
  9
$COORDS
 70
     1
  9
$SPLFRAME
 70
     0
  9
$SPLINETYPE
 70
     6
  9
$SPLINESEGS
 70
     8
  9
$ATTDIA
 70
     1
  9
$ATTREQ
 70
     1
  9
$HANDLING
 70
-16383
  9
$HANDSEED
  5
29E
  9
$SURFTAB1
 70
     6
  9
$SURFTAB2
 70
     6
  9
$SURFTYPE
 70
     6
  9
$SURFU
 70
     6
  9
$SURFV
 70
     6
  9
$UCSNAME
  2

  9
$UCSORG
 10
0.0
 20
0.0
 30
0.0
  9
$UCSXDIR
 10
1.0
 20
0.0
 30
0.0
  9
$UCSYDIR
 10
0.0
 20
1.0
 30
0.0
  9
$PUCSNAME
  2

  9
$PUCSORG
 10
0.0
 20
0.0
 30
0.0
  9
$PUCSXDIR
 10
1.0
 20
0.0
 30
0.0
  9
$PUCSYDIR
 10
0.0
 20
1.0
 30
0.0
  9
$USERI1
 70
     0
  9
$USERI2
 70
     0
  9
$USERI3
 70
     0
  9
$USERI4
 70
     0
  9
$USERI5
 70
     0
  9
$USERR1
 40
0.0
  9
$USERR2
 40
0.0
  9
$USERR3
 40
0.0
  9
$USERR4
 40
0.0
  9
$USERR5
 40
0.0
  9
$WORLDVIEW
 70
     1
  9
$SHADEDGE
 70
     3
  9
$SHADEDIF
 70
    70
  9
$TILEMODE
 70
     1
  9
$MAXACTVP
 70
    64
  9
$PINSBASE
 10
0.0
 20
0.0
 30
0.0
  9
$PLIMCHECK
 70
     0
  9
$PEXTMIN
 10
1.000000000000000E+20
 20
1.000000000000000E+20
 30
1.000000000000000E+20
  9
$PEXTMAX
 10
-1.000000000000000E+20
 20
-1.000000000000000E+20
 30
-1.000000000000000E+20
  9
$PLIMMIN
 10
0.0
 20
0.0
  9
$PLIMMAX
 10
12.0
 20
9.0
  9
$UNITMODE
 70
     0
  9
$VISRETAIN
 70
     1
  9
$PLINEGEN
 70
     0
  9
$PSLTSCALE
 70
     1
  9
$TREEDEPTH
 70
  3020
  9
$PICKSTYLE
 70
     1
  9
$CMLSTYLE
  2
STANDARD
  9
$CMLJUST
 70
     0
  9
$CMLSCALE
 40
1.0
  9
$PROXYGRAPHICS
 70
     1
  9
$MEASUREMENT
 70
     0
  0
ENDSEC
  0
SECTION
  2
CLASSES
  0
CLASS
  1
ACDBDICTIONARYWDFLT
  2
AcDbDictionaryWithDefault
  3
AutoCAD 2000
 90
        0
280
     0
281
     0
  0
CLASS
  1
ACDBPLACEHOLDER
  2
AcDbPlaceHolder
  3
AutoCAD 2000
 90
        0
280
     0
281
     0
  0
CLASS
  1
LAYOUT
  2
AcDbLayout
  3
AutoCAD 2000
 90
        0
280
     0
281
     0
  0
CLASS
  1
LONG_TRANSACTION
  2
AcDbLongTransaction
  3
AutoCAD 2000
 90
        0
280
     0
281
     0
  0
CLASS
  1
LWPOLYLINE
  2
AcDbPolyline
  3
AutoCAD 2000
 90
        0
280
     0
281
     1
  0
CLASS
  1
HATCH
  2
AcDbHatch
  3
AutoCAD 2000
 90
        0
280
     0
281
     1
  0
CLASS
  1
XRECORD
  2
AcDbXrecord
  3
AutoCAD 2000
 90
        0
280
     0
281
     0
  0
ENDSEC
  0
SECTION
  2
TABLES
  0
TABLE
  2
VPORT
  5
8
330
0
100
AcDbSymbolTable
 70
     3
  0
VPORT
  5
277
330
8
100
AcDbSymbolTableRecord
100
AcDbViewportTableRecord
  2
*ACTIVE
 70
     0
 10
0.0
 20
0.0
 11
1.0
 21
1.0
 12
6.581321473842802
 22
5.283088231257247
 13
0.0
 23
0.0
 14
0.5
 24
0.5
 15
0.5
 25
0.5
 16
0.0
 26
0.0
 36
1.0
 17
0.0
 27
0.0
 37
0.0
 40
8.99999999580908
 41
1.462515883100381
 42
50.0
 43
0.0
 44
0.0
 50
0.0
 51
0.0
 71
     0
 72
   100
 73
     1
 74
     3
 75
     0
 76
     0
 77
     0
 78
     0
  0
ENDTAB
  0
TABLE
  2
LTYPE
  5
5
330
0
100
AcDbSymbolTable
 70
     1
  0
LTYPE
  5
14
330
5
100
AcDbSymbolTableRecord
100
AcDbLinetypeTableRecord
  2
BYBLOCK
 70
     0
  3

 72
    65
 73
     0
 40
0.0
  0
LTYPE
  5
15
330
5
100
AcDbSymbolTableRecord
100
AcDbLinetypeTableRecord
  2
BYLAYER
 70
     0
  3

 72
    65
 73
     0
 40
0.0
  0
LTYPE
  5
16
330
5
100
AcDbSymbolTableRecord
100
AcDbLinetypeTableRecord
  2
CONTINUOUS
 70
     0
  3
Solid line
 72
    65
 73
     0
 40
0.0
  0
ENDTAB
  0
TABLE
  2
LAYER
  5
2
330
0
100
AcDbSymbolTable
 70
     4
  0
LAYER
  5
10
330
2
100
AcDbSymbolTableRecord
100
AcDbLayerTableRecord
  2
0
 70
     0
 62
     7
  6
CONTINUOUS
  0
LAYER
  5
34
330
2
100
AcDbSymbolTableRecord
100
AcDbLayerTableRecord
  2
L
 70
     0
 62
     7
  6
CONTINUOUS
  0
LAYER
  5
45
330
2
100
AcDbSymbolTableRecord
100
AcDbLayerTableRecord
  2
DEFPOINTS
 70
     0
 62
     7
  6
CONTINUOUS
  0
LAYER
  5
88
330
2
100
AcDbSymbolTableRecord
100
AcDbLayerTableRecord
  2
TX
 70
     0
 62
   150
  6
CONTINUOUS
  0
ENDTAB
  0
TABLE
  2
STYLE
  5
3
330
0
100
AcDbSymbolTable
 70
     3
  0
STYLE
  5
11
330
3
100
AcDbSymbolTableRecord
100
AcDbTextStyleTableRecord
  2
STANDARD
 70
     0
 40
0.0
 41
1.0
 50
0.0
 71
     0
 42
0.2
  3
txt
  4

  0
STYLE
  5
35
330
3
100
AcDbSymbolTableRecord
100
AcDbTextStyleTableRecord
  2
REG
 70
     0
 40
0.0
 41
1.0
 50
0.0
 71
     0
 42
0.09375
  3
E:\R13\com\fonts\ARCHITXT.SHX
  4

  0
STYLE
  5
36
330
3
100
AcDbSymbolTableRecord
100
AcDbTextStyleTableRecord
  2
DIMTXT
 70
     0
 40
0.0
 41
1.0
 50
0.0
 71
     0
 42
1.125
  3
archt.shx
  4

  0
ENDTAB
  0
TABLE
  2
VIEW
  5
6
330
0
100
AcDbSymbolTable
 70
     0
  0
ENDTAB
  0
TABLE
  2
UCS
  5
7
330
0
100
AcDbSymbolTable
 70
     0
  0
ENDTAB
  0
TABLE
  2
APPID
  5
9
330
0
100
AcDbSymbolTable
 70
     1
  0
APPID
  5
12
330
9
100
AcDbSymbolTableRecord
100
AcDbRegAppTableRecord
  2
ACAD
 70
     0
  0
ENDTAB
  0
TABLE
  2
DIMSTYLE
  5
A
330
0
100
AcDbSymbolTable
 70
     6
  0
DIMSTYLE
105
27
102
{ACAD_REACTORS
330
C1
330
CF
102
}
330
A
100
AcDbSymbolTableRecord
100
AcDbDimStyleTableRecord
  2
STANDARD
 70
     0
  3

  4

  5

  6

  7

 40
1.0
 41
0.18
 42
0.0625
 43
0.38
 44
0.18
 45
0.0
 46
0.0
 47
0.0
 48
0.0
140
0.18
141
0.09
142
0.0
143
25.4
144
1.0
145
0.0
146
1.0
147
0.09
 71
     0
 72
     0
 73
     1
 74
     1
 75
     0
 76
     0
 77
     0
 78
     0
170
     0
171
     2
172
     0
173
     0
174
     0
175
     0
176
     0
177
     0
178
     0
270
     2
271
     2
272
     2
273
     2
274
     2
340
11
275
     0
280
     0
281
     0
282
     0
283
     1
284
     0
285
     0
286
     0
287
     3
288
     0
  0
DIMSTYLE
105
37
330
A
100
AcDbSymbolTableRecord
100
AcDbDimStyleTableRecord
  2
1
 70
     0
  3

  4

  5

  6

  7

 40
1.0
 41
1.125
 42
0.5
 43
0.375
 44
1.19921875
 45
0.0
 46
0.5
 47
0.0
 48
0.0
140
1.125
141
0.125
142
0.0
143
25.4
144
1.0
145
0.0
146
0.8
147
0.5625
 71
     0
 72
     0
 73
     0
 74
     0
 75
     0
 76
     0
 77
     1
 78
     3
170
     0
171
     2
172
     1
173
     0
174
     1
175
     0
176
   133
177
   133
178
   150
270
     2
271
     3
272
     3
273
     2
274
     2
340
36
275
     0
280
     0
281
     0
282
     0
283
     1
284
     0
285
     0
286
     0
287
     4
288
     0
  0
DIMSTYLE
105
38
330
A
100
AcDbSymbolTableRecord
100
AcDbDimStyleTableRecord
  2
1$2
 70
     0
  3

  4

  5
DOTSMALL
  6

  7

 40
1.0
 41
1.5
 42
0.5
 43
0.375
 44
1.19921875
 45
0.0
 46
0.5
 47
0.0
 48
0.0
140
0.75
141
0.125
142
0.0
143
25.4
144
1.0
145
0.0
146
0.8
147
0.5625
 71
     0
 72
     0
 73
     0
 74
     0
 75
     0
 76
     0
 77
     1
 78
     3
170
     0
171
     2
172
     1
173
     0
174
     1
175
     0
176
   133
177
   133
178
   150
270
     2
271
     3
272
     3
273
     2
274
     2
340
36
275
     0
280
     0
281
     0
282
     0
283
     1
284
     0
285
     0
286
     0
287
     4
288
     0
  0
DIMSTYLE
105
39
330
A
100
AcDbSymbolTableRecord
100
AcDbDimStyleTableRecord
  2
1$4
 70
     0
  3

  4

  5

  6

  7
DOTSMALL
 40
1.0
 41
1.5
 42
0.5
 43
0.375
 44
1.19921875
 45
0.0
 46
0.5
 47
0.0
 48
0.0
140
0.75
141
0.125
142
0.0
143
25.4
144
1.0
145
0.0
146
0.8
147
0.5625
 71
     0
 72
     0
 73
     0
 74
     0
 75
     0
 76
     0
 77
     1
 78
     3
170
     0
171
     2
172
     1
173
     1
174
     1
175
     0
176
   133
177
   133
178
   150
270
     2
271
     3
272
     3
273
     2
274
     2
340
36
275
     0
280
     0
281
     0
282
     0
283
     1
284
     0
285
     0
286
     0
287
     4
288
     0
  0
DIMSTYLE
105
3A
330
A
100
AcDbSymbolTableRecord
100
AcDbDimStyleTableRecord
  2
1$3
 70
     0
  3

  4

  5
DOTSMALL
  6

  7

 40
1.0
 41
1.5
 42
0.5
 43
0.375
 44
1.19921875
 45
0.0
 46
0.5
 47
0.0
 48
0.0
140
0.75
141
0.125
142
0.0
143
25.4
144
1.0
145
0.0
146
0.8
147
0.5625
 71
     0
 72
     0
 73
     0
 74
     0
 75
     0
 76
     0
 77
     1
 78
     3
170
     0
171
     2
172
     1
173
     0
174
     1
175
     0
176
   133
177
   133
178
   150
270
     2
271
     3
272
     3
273
     2
274
     2
340
36
275
     0
280
     0
281
     0
282
     0
283
     1
284
     0
285
     0
286
     0
287
     4
288
     0
  0
DIMSTYLE
105
3B
330
A
100
AcDbSymbolTableRecord
100
AcDbDimStyleTableRecord
  2
1$7
 70
     0
  3

  4

  5

  6

  7

 40
1.0
 41
1.0
 42
0.5
 43
0.375
 44
1.19921875
 45
0.0
 46
0.5
 47
0.0
 48
0.0
140
0.75
141
0.125
142
0.0
143
25.4
144
1.0
145
0.0
146
0.8
147
0.5625
 71
     0
 72
     0
 73
     0
 74
     0
 75
     0
 76
     0
 77
     1
 78
     3
170
     0
171
     2
172
     1
173
     0
174
     1
175
     0
176
   133
177
   133
178
   150
270
     2
271
     3
272
     3
273
     2
274
     2
340
36
275
     0
280
     0
281
     0
282
     0
283
     1
284
     0
285
     0
286
     0
287
     4
288
     0
  0
ENDTAB
  0
TABLE
  2
BLOCK_RECORD
  5
1
330
0
100
AcDbSymbolTable
 70
     5
  0
BLOCK_RECORD
  5
1F
102
{ACAD_XDICTIONARY
360
29A
102
}
330
1
100
AcDbSymbolTableRecord
100
AcDbBlockTableRecord
  2
*MODEL_SPACE
  0
BLOCK_RECORD
  5
1B
102
{ACAD_XDICTIONARY
360
298
102
}
330
1
100
AcDbSymbolTableRecord
100
AcDbBlockTableRecord
  2
*PAPER_SPACE
  0
BLOCK_RECORD
  5
2B
330
1
100
AcDbSymbolTableRecord
100
AcDbBlockTableRecord
  2
_DOT
  0
BLOCK_RECORD
  5
30
330
1
100
AcDbSymbolTableRecord
100
AcDbBlockTableRecord
  2
_DOTSMALL
  0
BLOCK_RECORD
  5
C2
330
1
100
AcDbSymbolTableRecord
100
AcDbBlockTableRecord
  2
*D3
  0
BLOCK_RECORD
  5
D0
330
1
100
AcDbSymbolTableRecord
100
AcDbBlockTableRecord
  2
*D4
  0
ENDTAB
  0
ENDSEC
  0
SECTION
  2
BLOCKS
  0
BLOCK
  5
20
330
1F
100
AcDbEntity
  8
0
100
AcDbBlockBegin
  2
*MODEL_SPACE
 70
     0
 10
0.0
 20
0.0
 30
0.0
  3
*MODEL_SPACE
  1

  0
ENDBLK
  5
21
330
1F
100
AcDbEntity
  8
0
100
AcDbBlockEnd
  0
BLOCK
  5
1C
330
1B
100
AcDbEntity
 67
     1
  8
0
100
AcDbBlockBegin
  2
*PAPER_SPACE
 70
     0
 10
0.0
 20
0.0
 30
0.0
  3
*PAPER_SPACE
  1

  0
ENDBLK
  5
1D
330
1B
100
AcDbEntity
 67
     1
  8
0
100
AcDbBlockEnd
  0
BLOCK
  5
2E
330
2B
100
AcDbEntity
  8
0
100
AcDbBlockBegin
  2
_DOT
 70
     0
 10
0.0
 20
0.0
 30
0.0
  3
_DOT
  1

  0
LWPOLYLINE
  5
2C
330
2B
100
AcDbEntity
  8
L
 62
     0
100
AcDbPolyline
 90
        2
 70
     1
 43
0.5
 10
-0.25
 20
0.0
 42
1.0
 10
0.25
 20
0.0
 42
1.0
  0
LINE
  5
2D
330
2B
100
AcDbEntity
  8
L
 62
     0
100
AcDbLine
 10
-0.5
 20
0.0
 30
0.0
 11
-1.0
 21
0.0
 31
0.0
  0
ENDBLK
  5
2F
330
2B
100
AcDbEntity
  8
0
100
AcDbBlockEnd
  0
BLOCK
  5
32
330
30
100
AcDbEntity
  8
0
 48
0.116666
100
AcDbBlockBegin
  2
_DOTSMALL
 70
     0
 10
0.0
 20
0.0
 30
0.0
  3
_DOTSMALL
  1

  0
LWPOLYLINE
  5
31
330
30
100
AcDbEntity
  8
0
  6
BYBLOCK
 62
     0
100
AcDbPolyline
 90
        2
 70
     1
 43
0.5
 10
-0.0625
 20
0.0
 42
1.0
 10
0.0625
 20
0.0
 42
1.0
  0
ENDBLK
  5
33
330
30
100
AcDbEntity
  8
0
 48
0.116666
100
AcDbBlockEnd
  0
BLOCK
  5
CD
330
C2
100
AcDbEntity
  8
0
100
AcDbBlockBegin
  2
*D3
 70
     1
 10
0.0
 20
0.0
 30
0.0
  3
*D3
  1

  0
LINE
  5
C3
330
C2
100
AcDbEntity
  8
0
 62
     0
100
AcDbLine
 10
9.09870325743924
 20
6.779998677337005
 30
0.0
 11
9.09870325743924
 21
7.66627061129985
 31
0.0
  0
LINE
  5
C4
330
C2
100
AcDbEntity
  8
0
 62
     0
100
AcDbLine
 10
3.993703257439221
 20
6.359998677337046
 30
0.0
 11
3.993703257439221
 21
7.66627061129985
 31
0.0
  0
LINE
  5
C5
330
C2
100
AcDbEntity
  8
0
 62
     0
100
AcDbLine
 10
8.91870325743924
 20
7.48627061129985
 30
0.0
 11
6.84620325743923
 21
7.48627061129985
 31
0.0
  0
LINE
  5
C6
330
C2
100
AcDbEntity
  8
0
 62
     0
100
AcDbLine
 10
4.173703257439221
 20
7.48627061129985
 30
0.0
 11
6.246203257439231
 21
7.48627061129985
 31
0.0
  0
SOLID
  5
C7
330
C2
100
AcDbEntity
  8
0
 62
     0
100
AcDbTrace
 10
8.91870325743924
 20
7.516270611299851
 30
0.0
 11
8.91870325743924
 21
7.45627061129985
 31
0.0
 12
9.09870325743924
 22
7.48627061129985
 32
0.0
 13
9.09870325743924
 23
7.48627061129985
 33
0.0
  0
SOLID
  5
C8
330
C2
100
AcDbEntity
  8
0
 62
     0
100
AcDbTrace
 10
4.173703257439221
 20
7.516270611299851
 30
0.0
 11
4.173703257439221
 21
7.45627061129985
 31
0.0
 12
3.993703257439221
 22
7.48627061129985
 32
0.0
 13
3.993703257439221
 23
7.48627061129985
 33
0.0
  0
MTEXT
  5
C9
330
C2
100
AcDbEntity
  8
0
 62
     0
100
AcDbMText
 10
6.546203257439231
 20
7.48627061129985
 30
0.0
 40
0.18
 41
0.0
 71
     5
 72
     1
  1
\A1;5.11
1001
ACAD
1000
MTEXTBEGIN
1070
    73
1070
     1
1070
    44
1040
1.0
1070
    74
1070
     0
1000
MTEXTEND
  0
POINT
  5
CA
330
C2
100
AcDbEntity
  8
DEFPOINTS
 62
     0
100
AcDbPoint
 10
9.09870325743924
 20
6.717498677337005
 30
0.0
  0
POINT
  5
CB
330
C2
100
AcDbEntity
  8
DEFPOINTS
 62
     0
100
AcDbPoint
 10
3.993703257439221
 20
6.297498677337046
 30
0.0
  0
POINT
  5
CC
330
C2
100
AcDbEntity
  8
DEFPOINTS
 62
     0
100
AcDbPoint
 10
3.993703257439221
 20
7.48627061129985
 30
0.0
  0
ENDBLK
  5
CE
330
C2
100
AcDbEntity
  8
0
100
AcDbBlockEnd
  0
BLOCK
  5
DB
330
D0
100
AcDbEntity
  8
0
100
AcDbBlockBegin
  2
*D4
 70
     1
 10
0.0
 20
0.0
 30
0.0
  3
*D4
  1

  0
LINE
  5
D1
330
D0
100
AcDbEntity
  8
0
 62
     0
100
AcDbLine
 10
4.471203257439185
 20
6.727498677336996
 30
0.0
 11
3.087381859891422
 21
6.727498677336996
 31
0.0
  0
LINE
  5
D2
330
D0
100
AcDbEntity
  8
0
 62
     0
100
AcDbLine
 10
4.15620325743913
 20
4.977498677336996
 30
0.0
 11
3.087381859891421
 21
4.977498677336996
 31
0.0
  0
LINE
  5
D3
330
D0
100
AcDbEntity
  8
0
 62
     0
100
AcDbLine
 10
3.267381859891422
 20
6.547498677336996
 30
0.0
 11
3.267381859891422
 21
6.032498677336995
 31
0.0
  0
LINE
  5
D4
330
D0
100
AcDbEntity
  8
0
 62
     0
100
AcDbLine
 10
3.267381859891422
 20
5.157498677336995
 30
0.0
 11
3.267381859891422
 21
5.672498677336996
 31
0.0
  0
SOLID
  5
D5
330
D0
100
AcDbEntity
  8
0
 62
     0
100
AcDbTrace
 10
3.237381859891422
 20
6.547498677336996
 30
0.0
 11
3.297381859891422
 21
6.547498677336996
 31
0.0
 12
3.267381859891422
 22
6.727498677336996
 32
0.0
 13
3.267381859891422
 23
6.727498677336996
 33
0.0
  0
SOLID
  5
D6
330
D0
100
AcDbEntity
  8
0
 62
     0
100
AcDbTrace
 10
3.237381859891422
 20
5.157498677336995
 30
0.0
 11
3.297381859891422
 21
5.157498677336995
 31
0.0
 12
3.267381859891421
 22
4.977498677336996
 32
0.0
 13
3.267381859891421
 23
4.977498677336996
 33
0.0
  0
MTEXT
  5
D7
330
D0
100
AcDbEntity
  8
0
 62
     0
100
AcDbMText
 10
3.267381859891421
 20
5.852498677336996
 30
0.0
 40
0.18
 41
0.0
 71
     5
 72
     1
  1
\A1;1.75
1001
ACAD
1000
MTEXTBEGIN
1070
    73
1070
     1
1070
    44
1040
1.0
1070
    74
1070
     0
1000
MTEXTEND
  0
POINT
  5
D8
330
D0
100
AcDbEntity
  8
DEFPOINTS
 62
     0
100
AcDbPoint
 10
4.533703257439185
 20
6.727498677336996
 30
0.0
  0
POINT
  5
D9
330
D0
100
AcDbEntity
  8
DEFPOINTS
 62
     0
100
AcDbPoint
 10
4.21870325743913
 20
4.977498677336996
 30
0.0
  0
POINT
  5
DA
330
D0
100
AcDbEntity
  8
DEFPOINTS
 62
     0
100
AcDbPoint
 10
3.267381859891421
 20
4.977498677336996
 30
0.0
  0
ENDBLK
  5
DC
330
D0
100
AcDbEntity
  8
0
100
AcDbBlockEnd
  0
ENDSEC
  0
SECTION
  2
ENTITIES
  0
LWPOLYLINE
  5
BD
330
1F
100
AcDbEntity
  8
L
 62
     5
 48
0.116666
100
AcDbPolyline
 90
        2
 70
     0
 43
0.0282
 10
3.983670798917557
 20
3.976148886355815
 10
9.129370178227929
 20
3.976148886355815
  0
TEXT
  5
BE
330
1F
100
AcDbEntity
  8
L
 62
     3
 48
0.116666
100
AcDbText
 10
4.077656603845809
 20
4.070134691283953
 30
0.0
 40
0.141
  1
SERIES 7 SINGLE FACE HINGE BODY #1602
  7
REG
100
AcDbText
  0
TEXT
  5
BF
330
1F
100
AcDbEntity
  8
TX
 48
0.116666
100
AcDbText
 10
4.077656603845809
 20
3.788163081427677
 30
0.0
 40
0.094
  1
SCALE : FULL SIZE
  7
REG
 11
4.077656603845809
 21
3.882163081427677
 31
0.0
100
AcDbText
 73
     3
  0
DIMENSION
  5
C1
330
1F
100
AcDbEntity
  8
0
100
AcDbDimension
  2
*D3
 10
3.993703257439221
 20
7.48627061129985
 30
0.0
 11
6.546203257439231
 21
7.48627061129985
 31
0.0
 70
    32
  3
STANDARD
100
AcDbAlignedDimension
 13
9.09870325743924
 23
6.717498677337005
 33
0.0
 14
3.993703257439221
 24
6.297498677337046
 34
0.0
100
AcDbRotatedDimension
  0
DIMENSION
  5
CF
330
1F
100
AcDbEntity
  8
0
100
AcDbDimension
  2
*D4
 10
3.267381859891421
 20
4.977498677336996
 30
0.0
 11
3.267381859891421
 21
5.852498677336996
 31
0.0
 70
    32
  3
STANDARD
100
AcDbAlignedDimension
 13
4.533703257439185
 23
6.727498677336996
 33
0.0
 14
4.21870325743913
 24
4.977498677336996
 34
0.0
 50
90.0
100
AcDbRotatedDimension
  0
LWPOLYLINE
  5
1AD
330
1F
100
AcDbEntity
  8
L
 62
     5
100
AcDbPolyline
 90
      201
 70
     1
 43
0.0
 10
4.253806740809515
 20
6.133031095341391
 42
-0.3182284865408728
 10
4.253806740809579
 20
6.139966259332538
 10
4.266599774068705
 20
6.158031095341456
 42
0.3182284865330705
 10
4.266599774068765
 20
6.164966259332629
 10
4.253806740809515
 20
6.183031095341459
 42
-0.3182284865408728
 10
4.253806740809579
 20
6.189966259332607
 10
4.266599774068829
 20
6.208031095341437
 42
0.3182284865408728
 10
4.266599774068765
 20
6.214966259332584
 10
4.253806740809638
 20
6.233031095341501
 42
-0.3654785947654584
 10
4.254460616752169
 20
6.240741318024163
 10
4.267703257439109
 20
6.259441037433077
 10
4.267703257439109
 20
6.286498677337078
 10
4.298703257439285
 20
6.317498677337027
 10
4.444703257439243
 20
6.317498677337027
 42
-0.4142135623797547
 10
4.454703257439234
 20
6.307498677337036
 10
4.454703257439291
 20
6.257498677337082
 42
-0.4142135623730951
 10
4.434703257439252
 20
6.237498677336986
 10
4.403703257439303
 20
6.237498677336986
 42
0.4142135623739275
 10
4.363703257439112
 20
6.197498677337023
 10
4.363703257439035
 20
5.958265538764351
 42
0.6745085168461581
 10
4.398090053445969
 20
5.944372371355086
 10
4.610896655442562
 20
6.164740058697415
 42
0.1943803091373597
 10
4.613703257439112
 20
6.171686642401994
 10
4.613703257439169
 20
6.607498677336991
 42
0.4142135623730951
 10
4.573703257439149
 20
6.647498677337068
 10
4.503703257439212
 20
6.647498677337068
 42
-0.4142135623730951
 10
4.493703257439221
 20
6.657498677337059
 10
4.493703257439221
 20
6.687498677337032
 42
-0.4142135623730951
 10
4.533703257439185
 20
6.727498677336996
 10
9.088703257439249
 20
6.727498677336996
 42
-0.4142135623730951
 10
9.09870325743924
 20
6.717498677337005
 10
9.098703257439069
 20
6.637498677337077
 42
-0.4142135623664355
 10
9.088703257439249
 20
6.627498677336973
 10
8.998703257439103
 20
6.627498677336973
 42
0.4142135623730951
 10
8.988703257439112
 20
6.617498677336982
 10
8.988703257438885
 20
4.987498677336986
 42
-0.4142135623664355
 10
8.978703257439121
 20
4.977498677336996
 10
8.918703257439176
 20
4.977498677336996
 42
-0.4142135623730951
 10
8.908703257439185
 20
4.987498677336986
 10
8.908703257438958
 20
5.605498677337038
 42
0.4142135623664355
 10
8.898703257439194
 20
5.615498677337029
 10
8.83370325743914
 20
5.615498677337029
 42
-1.000000000000003
 10
8.83370325743914
 20
5.665498677336984
 10
8.898703257439194
 20
5.665498677336984
 42
0.4142135623730951
 10
8.908703257439185
 20
5.675498677336975
 10
8.908703257439185
 20
5.707498677337014
 42
0.4142135623730951
 10
8.898703257439194
 20
5.717498677337005
 10
8.433703257439276
 20
5.717498677337005
 10
8.423703257439285
 20
5.727498677336996
 10
8.413703257439294
 20
5.717498677337005
 10
8.243703257439221
 20
5.717498677337005
 42
-0.4142135623730951
 10
8.22370325743924
 20
5.737498677336986
 10
8.22370325743924
 20
5.797498677337046
 42
-0.4142135623730951
 10
8.243703257439221
 20
5.817498677337027
 10
8.313703257439158
 20
5.817498677337027
 42
-0.4142135623730951
 10
8.323703257439149
 20
5.807498677337036
 42
0.4142135623730951
 10
8.33370325743914
 20
5.797498677337046
 10
8.898703257439194
 20
5.797498677337046
 42
0.4142135623664355
 10
8.908703257439185
 20
5.807498677337036
 10
8.908703257439185
 20
6.102498677336996
 42
0.4142135623730951
 10
8.888703257439203
 20
6.122498677336977
 10
8.853703257439121
 20
6.122498677336977
 42
0.4142135623730951
 10
8.83370325743914
 20
6.102498677336996
 42
-0.4142135623730951
 10
8.813703257439158
 20
6.082498677337014
 10
8.803703257439167
 20
6.082498677337014
 42
-0.4142135623730951
 10
8.783703257439185
 20
6.102498677336996
 10
8.783703257439185
 20
6.152498677337064
 42
-0.4142135623730951
 10
8.803703257439167
 20
6.172498677337046
 10
8.898703257439194
 20
6.172498677337046
 42
0.4142135623730951
 10
8.908703257439185
 20
6.182498677337036
 10
8.908703257439185
 20
6.272498677337068
 42
0.4142135623730951
 10
8.898703257439194
 20
6.282498677337059
 10
8.803703257439167
 20
6.282498677337059
 42
-0.4142135623730951
 10
8.783703257439185
 20
6.302498677337041
 10
8.783703257439185
 20
6.352498677336996
 42
-0.4142135623730951
 10
8.803703257439167
 20
6.372498677336977
 10
8.813703257439158
 20
6.372498677336977
 42
-0.4142135623730951
 10
8.83370325743914
 20
6.352498677336996
 10
8.83370325743914
 20
6.350498677337043
 42
0.4142135623730951
 10
8.851703257439169
 20
6.332498677337014
 10
8.888703257439203
 20
6.332498677337014
 42
0.4142135623730951
 10
8.908703257439185
 20
6.352498677336996
 10
8.908703257439185
 20
6.637498677337077
 10
4.72370325743924
 20
6.637498677337134
 42
0.4142135623764247
 10
4.713703257439249
 20
6.627498677336973
 10
4.713703257439249
 20
6.352498677336996
 42
0.4142135623730951
 10
4.733703257439231
 20
6.332498677337014
 10
4.770703257439265
 20
6.332498677337014
 42
0.4142135623730951
 10
4.788703257439294
 20
6.350498677337043
 10
4.788703257439294
 20
6.352498677336996
 42
-0.4142135623730951
 10
4.808703257439276
 20
6.372498677336977
 10
4.818703257439267
 20
6.372498677336976
 42
-0.4142135623730951
 10
4.838703257439249
 20
6.352498677336996
 10
4.838703257439249
 20
6.302498677337041
 42
-0.4142135623730951
 10
4.818703257439267
 20
6.282498677337059
 10
4.72370325743924
 20
6.282498677337059
 42
0.4142135623797547
 10
4.713703257439249
 20
6.272498677337068
 10
4.713703257439021
 20
6.182498677337036
 42
0.4142135623797547
 10
4.72370325743924
 20
6.172498677337046
 10
4.818703257439267
 20
6.172498677337046
 42
-0.4142135623730951
 10
4.838703257439249
 20
6.152498677337064
 10
4.838703257439249
 20
6.102498677336996
 42
-0.4142135623730951
 10
4.818703257439267
 20
6.082498677337014
 10
4.808703257439276
 20
6.082498677337014
 42
-0.4142135623730951
 10
4.788703257439294
 20
6.102498677336996
 42
0.4142135623730951
 10
4.768703257439312
 20
6.122498677336977
 10
4.717610483056489
 20
6.122498677337063
 42
0.2034522994247292
 10
4.703223687049614
 20
6.11639184474626
 10
4.522445527998173
 20
5.929190580977262
 42
0.4142135623718973
 10
4.522939156595896
 20
5.900910617561351
 10
4.624212712613462
 20
5.803111881330303
 42
0.1943803091376291
 10
4.638105880022806
 20
5.797498677337046
 10
4.873703257439103
 20
5.797498677337046
 42
0.4142135623664355
 10
4.88370325743898
 20
5.807498677337036
 42
-0.4142135623764248
 10
4.893703257439312
 20
5.817498677337027
 10
4.963703257439249
 20
5.817498677337027
 42
-0.4142135623730951
 10
4.983703257439231
 20
5.797498677337046
 10
4.983703257439231
 20
5.737498677336986
 42
-0.4142135623730951
 10
4.963703257439249
 20
5.717498677337005
 10
4.793703257439176
 20
5.717498677337005
 10
4.783703257439185
 20
5.727498677336996
 10
4.773703257439194
 20
5.717498677337005
 10
4.605783781955835
 20
5.717498677337025
 42
-0.1943803091375563
 10
4.591890614546684
 20
5.723111881330225
 10
4.467366486959066
 20
5.843363433534194
 42
0.4142135623742928
 10
4.439086523543267
 20
5.842869804936583
 10
4.301509859435791
 20
5.700404998783358
 42
0.1943803091394813
 10
4.298703257439285
 20
5.693458415078623
 10
4.298703257439285
 20
5.097498677337
 42
0.4142135623730951
 10
4.318703257439267
 20
5.077498677337018
 10
4.428703257439167
 20
5.077498677337018
 42
-0.4142135623730951
 10
4.448703257439149
 20
5.057498677337036
 10
4.448703257439149
 20
4.997498677336977
 42
-0.4142135623730951
 10
4.428703257439167
 20
4.977498677336996
 10
4.21870325743913
 20
4.977498677336996
 42
-0.4142135623730951
 10
4.198703257439149
 20
4.997498677336977
 10
4.198703257439149
 20
5.657498677337059
 42
0.4142135623730951
 10
4.158703257439185
 20
5.697498677337023
 10
4.033703257439185
 20
5.697498677337023
 42
-0.4142135623730951
 10
3.993703257439221
 20
5.737498677336986
 10
3.993703257439221
 20
6.297498677337046
 42
-0.4142135623730951
 10
4.013703257439203
 20
6.317498677337027
 10
4.052188538813481
 20
6.317498677337027
 10
4.103945898126232
 20
6.265741318024003
 42
-0.3654785947578648
 10
4.104599774068731
 20
6.258031095341436
 10
4.091806740809481
 20
6.239966259332606
 42
0.3182284865408727
 10
4.091806740809545
 20
6.233031095341459
 10
4.104599774068796
 20
6.214966259332629
 42
-0.3182284865408731
 10
4.104599774068731
 20
6.208031095341482
 10
4.091806740809481
 20
6.189966259332652
 42
0.3182284865408727
 10
4.091806740809545
 20
6.183031095341505
 10
4.104599774068724
 20
6.164966259332624
 42
-0.3182284865330705
 10
4.104599774068731
 20
6.158031095341414
 10
4.091806740809481
 20
6.139966259332584
 42
0.3182284865408727
 10
4.091806740809545
 20
6.133031095341436
 10
4.104599774068795
 20
6.114966259332606
 42
-0.3182284865408728
 10
4.104599774068731
 20
6.108031095341459
 10
4.091806740809481
 20
6.089966259332629
 42
0.3182284865408727
 10
4.091806740809545
 20
6.083031095341482
 10
4.104599774068795
 20
6.064966259332652
 42
-0.3182284865408731
 10
4.104599774068731
 20
6.058031095341505
 10
4.091806740809481
 20
6.039966259332675
 42
0.3182284865408727
 10
4.091806740809545
 20
6.033031095341527
 10
4.104599774068795
 20
6.014966259332584
 42
-0.3182284865408731
 10
4.104599774068731
 20
6.008031095341436
 10
4.091806740809481
 20
5.989966259332606
 42
0.3182284865408727
 10
4.091806740809545
 20
5.983031095341459
 10
4.104599774068795
 20
5.964966259332629
 42
-0.3182284865408731
 10
4.104599774068731
 20
5.958031095341482
 10
4.091806740809481
 20
5.939966259332652
 42
0.3182284865408727
 10
4.091806740809545
 20
5.933031095341505
 10
4.104599774068795
 20
5.914966259332675
 42
-0.3182284865408731
 10
4.104599774068731
 20
5.908031095341527
 10
4.091806740809443
 20
5.88996625933261
 42
0.1552778082875795
 10
4.090703257439201
 20
5.886498677336987
 10
4.090703257439201
 20
5.818498677337004
 42
0.4142135623730951
 10
4.121703257439151
 20
5.787498677337055
 10
4.23670325743916
 20
5.787498677337055
 42
0.4142135623730951
 10
4.267703257439109
 20
5.818498677337004
 10
4.267703257438998
 20
5.86149867733701
 42
0.1552778082810799
 10
4.266599774068765
 20
5.864966259332561
 10
4.253806740809515
 20
5.883031095341391
 42
-0.3182284865408728
 10
4.253806740809579
 20
5.889966259332538
 10
4.266599774068705
 20
5.908031095341456
 42
0.3182284865330705
 10
4.266599774068765
 20
5.914966259332629
 10
4.253806740809515
 20
5.933031095341459
 42
-0.3182284865408728
 10
4.253806740809579
 20
5.939966259332607
 10
4.266599774068829
 20
5.958031095341437
 42
0.3182284865408728
 10
4.266599774068765
 20
5.964966259332584
 10
4.253806740809515
 20
5.983031095341414
 42
-0.3182284865408728
 10
4.253806740809579
 20
5.989966259332561
 10
4.266599774068829
 20
6.008031095341391
 42
0.3182284865408728
 10
4.266599774068765
 20
6.014966259332538
 10
4.25380674080964
 20
6.033031095341456
 42
-0.3182284865330707
 10
4.253806740809579
 20
6.039966259332629
 10
4.266599774068829
 20
6.058031095341459
 42
0.3182284865408728
 10
4.266599774068765
 20
6.064966259332607
 10
4.253806740809515
 20
6.083031095341437
 42
-0.3182284865408728
 10
4.253806740809579
 20
6.089966259332584
 10
4.266599774068829
 20
6.108031095341414
 42
0.3182284865408728
 10
4.266599774068765
 20
6.114966259332561
  0
ENDSEC
  0
SECTION
  2
OBJECTS
  0
DICTIONARY
  5
C
330
0
100
AcDbDictionary
  3
ACAD_GROUP
350
D
  3
ACAD_LAYOUT
350
1A
  3
ACAD_MLINESTYLE
350
17
  3
ACAD_PLOTSETTINGS
350
19
  3
ACAD_PLOTSTYLENAME
350
E
  3
ACDBHEADERROUNDTRIPXREC
350
278
  0
DICTIONARY
  5
29A
330
1F
100
AcDbDictionary
280
     1
  3
ACAD_LAYOUTSELFREF
360
29B
  0
DICTIONARY
  5
298
330
1B
100
AcDbDictionary
280
     1
  3
ACAD_LAYOUTSELFREF
360
299
  0
DICTIONARY
  5
D
102
{ACAD_REACTORS
330
C
102
}
330
C
100
AcDbDictionary
  0
DICTIONARY
  5
1A
102
{ACAD_REACTORS
330
C
102
}
330
C
100
AcDbDictionary
  0
DICTIONARY
  5
17
102
{ACAD_REACTORS
330
C
102
}
330
C
100
AcDbDictionary
  3
STANDARD
350
18
  0
DICTIONARY
  5
19
102
{ACAD_REACTORS
330
C
102
}
330
C
100
AcDbDictionary
  0
ACDBDICTIONARYWDFLT
  5
E
102
{ACAD_REACTORS
330
C
102
}
330
C
100
AcDbDictionary
281
     1
  3
Normal
350
F
100
AcDbDictionaryWithDefault
340
F
  0
DICTIONARY
  5
278
102
{ACAD_REACTORS
330
C
102
}
330
C
100
AcDbDictionary
  3
CEPSNTYPE
350
282
  3
FINGERPRINTGUID
350
283
  3
HYPERLINKBASE
350
27B
  3
INSUNITS
350
281
  3
LAYOUTDICT
350
27D
  3
LWETCUNION
350
280
  3
PLOTSETDICT
350
27E
  3
PLOTSTYLNAMDICT
350
27F
  3
PSVPSCALE
350
285
  3
PUCSBASE
350
288
  3
PUCSORGBACK
350
28E
  3
PUCSORGBOTTOM
350
28A
  3
PUCSORGFRONT
350
28D
  3
PUCSORGLEFT
350
28B
  3
PUCSORGRIGHT
350
28C
  3
PUCSORGTOP
350
289
  3
PUCSORTHOREF
350
286
  3
PUCSORTHOVIEW
350
287
  3
STYLESHEET
350
27C
  3
TSTACKALIGN
350
279
  3
TSTACKSIZE
350
27A
  3
UCSBASE
350
291
  3
UCSORGBACK
350
297
  3
UCSORGBOTTOM
350
293
  3
UCSORGFRONT
350
296
  3
UCSORGLEFT
350
294
  3
UCSORGRIGHT
350
295
  3
UCSORGTOP
350
292
  3
UCSORTHOREF
350
28F
  3
UCSORTHOVIEW
350
290
  3
VERSIONGUID
350
284
  0
XRECORD
  5
29B
102
{ACAD_REACTORS
330
29A
102
}
330
29A
100
AcDbXrecord
340
1F
  0
XRECORD
  5
299
102
{ACAD_REACTORS
330
298
102
}
330
298
100
AcDbXrecord
340
1B
  0
MLINESTYLE
  5
18
102
{ACAD_REACTORS
330
17
102
}
330
17
100
AcDbMlineStyle
  2
STANDARD
 70
     0
  3

 62
   256
 51
90.0
 52
90.0
 71
     2
 49
0.5
 62
   256
  6
BYLAYER
 49
-0.5
 62
   256
  6
BYLAYER
  0
ACDBPLACEHOLDER
  5
F
102
{ACAD_REACTORS
330
E
102
}
330
E
100
AcDbPlaceHolder
280
     0
  0
XRECORD
  5
282
102
{ACAD_REACTORS
330
278
102
}
330
278
100
AcDbXrecord
 90
        0
  0
XRECORD
  5
283
102
{ACAD_REACTORS
330
278
102
}
330
278
100
AcDbXrecord
  1
{DC175E3D-AE85-11D5-9A93-0040C77E826B}
  0
XRECORD
  5
27B
102
{ACAD_REACTORS
330
278
102
}
330
278
100
AcDbXrecord
  1

  0
XRECORD
  5
281
102
{ACAD_REACTORS
330
278
102
}
330
278
100
AcDbXrecord
 90
        1
  0
XRECORD
  5
27D
102
{ACAD_REACTORS
330
278
102
}
330
278
100
AcDbXrecord
340
1A
  0
XRECORD
  5
280
102
{ACAD_REACTORS
330
278
102
}
330
278
100
AcDbXrecord
 90
    10781
  0
XRECORD
  5
27E
102
{ACAD_REACTORS
330
278
102
}
330
278
100
AcDbXrecord
340
19
  0
XRECORD
  5
27F
102
{ACAD_REACTORS
330
278
102
}
330
278
100
AcDbXrecord
340
E
  0
XRECORD
  5
285
102
{ACAD_REACTORS
330
278
102
}
330
278
100
AcDbXrecord
 40
0.0
  0
XRECORD
  5
288
102
{ACAD_REACTORS
330
278
102
}
330
278
100
AcDbXrecord
340
0
  0
XRECORD
  5
28E
102
{ACAD_REACTORS
330
278
102
}
330
278
100
AcDbXrecord
 10
0.0
 20
0.0
 30
0.0
  0
XRECORD
  5
28A
102
{ACAD_REACTORS
330
278
102
}
330
278
100
AcDbXrecord
 10
0.0
 20
0.0
 30
0.0
  0
XRECORD
  5
28D
102
{ACAD_REACTORS
330
278
102
}
330
278
100
AcDbXrecord
 10
0.0
 20
0.0
 30
0.0
  0
XRECORD
  5
28B
102
{ACAD_REACTORS
330
278
102
}
330
278
100
AcDbXrecord
 10
0.0
 20
0.0
 30
0.0
  0
XRECORD
  5
28C
102
{ACAD_REACTORS
330
278
102
}
330
278
100
AcDbXrecord
 10
0.0
 20
0.0
 30
0.0
  0
XRECORD
  5
289
102
{ACAD_REACTORS
330
278
102
}
330
278
100
AcDbXrecord
 10
0.0
 20
0.0
 30
0.0
  0
XRECORD
  5
286
102
{ACAD_REACTORS
330
278
102
}
330
278
100
AcDbXrecord
340
0
  0
XRECORD
  5
287
102
{ACAD_REACTORS
330
278
102
}
330
278
100
AcDbXrecord
 70
     0
  0
XRECORD
  5
27C
102
{ACAD_REACTORS
330
278
102
}
330
278
100
AcDbXrecord
  1

  0
XRECORD
  5
279
102
{ACAD_REACTORS
330
278
102
}
330
278
100
AcDbXrecord
 90
        1
  0
XRECORD
  5
27A
102
{ACAD_REACTORS
330
278
102
}
330
278
100
AcDbXrecord
 90
       70
  0
XRECORD
  5
291
102
{ACAD_REACTORS
330
278
102
}
330
278
100
AcDbXrecord
340
0
  0
XRECORD
  5
297
102
{ACAD_REACTORS
330
278
102
}
330
278
100
AcDbXrecord
 10
0.0
 20
0.0
 30
0.0
  0
XRECORD
  5
293
102
{ACAD_REACTORS
330
278
102
}
330
278
100
AcDbXrecord
 10
0.0
 20
0.0
 30
0.0
  0
XRECORD
  5
296
102
{ACAD_REACTORS
330
278
102
}
330
278
100
AcDbXrecord
 10
0.0
 20
0.0
 30
0.0
  0
XRECORD
  5
294
102
{ACAD_REACTORS
330
278
102
}
330
278
100
AcDbXrecord
 10
0.0
 20
0.0
 30
0.0
  0
XRECORD
  5
295
102
{ACAD_REACTORS
330
278
102
}
330
278
100
AcDbXrecord
 10
0.0
 20
0.0
 30
0.0
  0
XRECORD
  5
292
102
{ACAD_REACTORS
330
278
102
}
330
278
100
AcDbXrecord
 10
0.0
 20
0.0
 30
0.0
  0
XRECORD
  5
28F
102
{ACAD_REACTORS
330
278
102
}
330
278
100
AcDbXrecord
340
0
  0
XRECORD
  5
290
102
{ACAD_REACTORS
330
278
102
}
330
278
100
AcDbXrecord
 70
     0
  0
XRECORD
  5
284
102
{ACAD_REACTORS
330
278
102
}
330
278
100
AcDbXrecord
  1
{82E065DA-26EF-4497-999F-36E52712FE7B}
  0
ENDSEC
  0
EOF
